  0
SECTION
  2
HEADER
  9
$ACADVER
  1
AC1014
  9
$ACADMAINTVER
 70
     9
  9
$DWGCODEPAGE
  3
ANSI_1252
  9
$INSBASE
 10
0.0
 20
0.0
 30
0.0
  9
$EXTMIN
 10
4.237117246646738
 20
3.401518136720654
 30
0.0
  9
$EXTMAX
 10
9.791440790387529
 20
7.857462639967252
 30
0.0
  9
$LIMMIN
 10
0.0
 20
0.0
  9
$LIMMAX
 10
12.0
 20
9.0
  9
$ORTHOMODE
 70
     0
  9
$REGENMODE
 70
     1
  9
$FILLMODE
 70
     1
  9
$QTEXTMODE
 70
     0
  9
$MIRRTEXT
 70
     1
  9
$DRAGMODE
 70
     2
  9
$LTSCALE
 40
1.0
  9
$OSMODE
 70
     0
  9
$ATTMODE
 70
     1
  9
$TEXTSIZE
 40
0.09375
  9
$TRACEWID
 40
0.05
  9
$TEXTSTYLE
  7
STANDARD
  9
$CLAYER
  8
0
  9
$CELTYPE
  6
BYLAYER
  9
$CECOLOR
 62
   256
  9
$CELTSCALE
 40
1.0
  9
$DELOBJ
 70
     1
  9
$DISPSILH
 70
     0
  9
$DIMSCALE
 40
0.5208333333333334
  9
$DIMASZ
 40
0.18
  9
$DIMEXO
 40
0.0625
  9
$DIMDLI
 40
0.38
  9
$DIMRND
 40
0.0
  9
$DIMDLE
 40
0.0
  9
$DIMEXE
 40
0.18
  9
$DIMTP
 40
0.0
  9
$DIMTM
 40
0.0
  9
$DIMTXT
 40
0.18
  9
$DIMCEN
 40
0.09
  9
$DIMTSZ
 40
0.0
  9
$DIMTOL
 70
     0
  9
$DIMLIM
 70
     0
  9
$DIMTIH
 70
     1
  9
$DIMTOH
 70
     1
  9
$DIMSE1
 70
     0
  9
$DIMSE2
 70
     0
  9
$DIMTAD
 70
     0
  9
$DIMZIN
 70
     0
  9
$DIMBLK
  1

  9
$DIMASO
 70
     1
  9
$DIMSHO
 70
     1
  9
$DIMPOST
  1

  9
$DIMAPOST
  1

  9
$DIMALT
 70
     0
  9
$DIMALTD
 70
     2
  9
$DIMALTF
 40
25.4
  9
$DIMLFAC
 40
1.0
  9
$DIMTOFL
 70
     0
  9
$DIMTVP
 40
0.0
  9
$DIMTIX
 70
     0
  9
$DIMSOXD
 70
     0
  9
$DIMSAH
 70
     0
  9
$DIMBLK1
  1

  9
$DIMBLK2
  1

  9
$DIMSTYLE
  2
STANDARD
  9
$DIMCLRD
 70
     0
  9
$DIMCLRE
 70
     0
  9
$DIMCLRT
 70
     0
  9
$DIMTFAC
 40
1.0
  9
$DIMGAP
 40
0.09
  9
$DIMJUST
 70
     0
  9
$DIMSD1
 70
     0
  9
$DIMSD2
 70
     0
  9
$DIMTOLJ
 70
     1
  9
$DIMTZIN
 70
     0
  9
$DIMALTZ
 70
     0
  9
$DIMALTTZ
 70
     0
  9
$DIMFIT
 70
     3
  9
$DIMUPT
 70
     0
  9
$DIMUNIT
 70
     2
  9
$DIMDEC
 70
     2
  9
$DIMTDEC
 70
     2
  9
$DIMALTU
 70
     2
  9
$DIMALTTD
 70
     2
  9
$DIMTXSTY
  7
STANDARD
  9
$DIMAUNIT
 70
     0
  9
$LUNITS
 70
     2
  9
$LUPREC
 70
     4
  9
$SKETCHINC
 40
0.1
  9
$FILLETRAD
 40
0.5
  9
$AUNITS
 70
     0
  9
$AUPREC
 70
     0
  9
$MENU
  1
.
  9
$ELEVATION
 40
0.0
  9
$PELEVATION
 40
0.0
  9
$THICKNESS
 40
0.0
  9
$LIMCHECK
 70
     0
  9
$BLIPMODE
 70
     0
  9
$CHAMFERA
 40
0.5
  9
$CHAMFERB
 40
0.5
  9
$CHAMFERC
 40
1.0
  9
$CHAMFERD
 40
0.0
  9
$SKPOLY
 70
     0
  9
$TDCREATE
 40
2453178.491752488
  9
$TDUPDATE
 40
2453178.629641493
  9
$TDINDWG
 40
0.1378891782
  9
$TDUSRTIMER
 40
0.1378891782
  9
$USRTIMER
 70
     1
  9
$ANGBASE
 50
0.0
  9
$ANGDIR
 70
     0
  9
$PDMODE
 70
     0
  9
$PDSIZE
 40
0.0
  9
$PLINEWID
 40
0.0
  9
$COORDS
 70
     2
  9
$SPLFRAME
 70
     0
  9
$SPLINETYPE
 70
     6
  9
$SPLINESEGS
 70
     8
  9
$ATTDIA
 70
     1
  9
$ATTREQ
 70
     1
  9
$HANDLING
 70
-16383
  9
$HANDSEED
  5
13B
  9
$SURFTAB1
 70
     6
  9
$SURFTAB2
 70
     6
  9
$SURFTYPE
 70
     6
  9
$SURFU
 70
     6
  9
$SURFV
 70
     6
  9
$UCSNAME
  2

  9
$UCSORG
 10
0.0
 20
0.0
 30
0.0
  9
$UCSXDIR
 10
1.0
 20
0.0
 30
0.0
  9
$UCSYDIR
 10
0.0
 20
1.0
 30
0.0
  9
$PUCSNAME
  2

  9
$PUCSORG
 10
0.0
 20
0.0
 30
0.0
  9
$PUCSXDIR
 10
1.0
 20
0.0
 30
0.0
  9
$PUCSYDIR
 10
0.0
 20
1.0
 30
0.0
  9
$USERI1
 70
     0
  9
$USERI2
 70
     0
  9
$USERI3
 70
     0
  9
$USERI4
 70
     0
  9
$USERI5
 70
     0
  9
$USERR1
 40
0.09375
  9
$USERR2
 40
0.0
  9
$USERR3
 40
0.0
  9
$USERR4
 40
0.0
  9
$USERR5
 40
0.0
  9
$WORLDVIEW
 70
     1
  9
$SHADEDGE
 70
     3
  9
$SHADEDIF
 70
    70
  9
$TILEMODE
 70
     1
  9
$MAXACTVP
 70
    64
  9
$PINSBASE
 10
0.0
 20
0.0
 30
0.0
  9
$PLIMCHECK
 70
     0
  9
$PEXTMIN
 10
1.000000000000000E+20
 20
1.000000000000000E+20
 30
1.000000000000000E+20
  9
$PEXTMAX
 10
-1.000000000000000E+20
 20
-1.000000000000000E+20
 30
-1.000000000000000E+20
  9
$PLIMMIN
 10
0.0
 20
0.0
  9
$PLIMMAX
 10
12.0
 20
9.0
  9
$UNITMODE
 70
     0
  9
$VISRETAIN
 70
     1
  9
$PLINEGEN
 70
     0
  9
$PSLTSCALE
 70
     1
  9
$TREEDEPTH
 70
  3020
  9
$PICKSTYLE
 70
     1
  9
$CMLSTYLE
  2
STANDARD
  9
$CMLJUST
 70
     0
  9
$CMLSCALE
 40
1.0
  9
$PROXYGRAPHICS
 70
     1
  9
$MEASUREMENT
 70
     0
  0
ENDSEC
  0
SECTION
  2
CLASSES
  0
CLASS
  1
ACDBDICTIONARYWDFLT
  2
AcDbDictionaryWithDefault
  3
AutoCAD 2000
 90
        0
280
     0
281
     0
  0
CLASS
  1
ACDBPLACEHOLDER
  2
AcDbPlaceHolder
  3
AutoCAD 2000
 90
        0
280
     0
281
     0
  0
CLASS
  1
LAYOUT
  2
AcDbLayout
  3
AutoCAD 2000
 90
        0
280
     0
281
     0
  0
CLASS
  1
LONG_TRANSACTION
  2
AcDbLongTransaction
  3
AutoCAD 2000
 90
        0
280
     0
281
     0
  0
CLASS
  1
LWPOLYLINE
  2
AcDbPolyline
  3
AutoCAD 2000
 90
        0
280
     0
281
     1
  0
CLASS
  1
HATCH
  2
AcDbHatch
  3
AutoCAD 2000
 90
        0
280
     0
281
     1
  0
CLASS
  1
XRECORD
  2
AcDbXrecord
  3
AutoCAD 2000
 90
        0
280
     0
281
     0
  0
ENDSEC
  0
SECTION
  2
TABLES
  0
TABLE
  2
VPORT
  5
8
330
0
100
AcDbSymbolTable
 70
     5
  0
VPORT
  5
114
330
8
100
AcDbSymbolTableRecord
100
AcDbViewportTableRecord
  2
*ACTIVE
 70
     0
 10
0.0
 20
0.0
 11
1.0
 21
1.0
 12
7.278350515030426
 22
5.383188525038637
 13
0.0
 23
0.0
 14
0.5
 24
0.5
 15
0.5
 25
0.5
 16
0.0
 26
0.0
 36
1.0
 17
0.0
 27
0.0
 37
0.0
 40
10.01002976341222
 41
1.513903192584963
 42
50.0
 43
0.0
 44
0.0
 50
0.0
 51
0.0
 71
     0
 72
   100
 73
     1
 74
     3
 75
     0
 76
     0
 77
     0
 78
     0
  0
ENDTAB
  0
TABLE
  2
LTYPE
  5
5
330
0
100
AcDbSymbolTable
 70
     1
  0
LTYPE
  5
14
330
5
100
AcDbSymbolTableRecord
100
AcDbLinetypeTableRecord
  2
BYBLOCK
 70
     0
  3

 72
    65
 73
     0
 40
0.0
  0
LTYPE
  5
15
330
5
100
AcDbSymbolTableRecord
100
AcDbLinetypeTableRecord
  2
BYLAYER
 70
     0
  3

 72
    65
 73
     0
 40
0.0
  0
LTYPE
  5
16
330
5
100
AcDbSymbolTableRecord
100
AcDbLinetypeTableRecord
  2
CONTINUOUS
 70
     0
  3
Solid line
 72
    65
 73
     0
 40
0.0
  0
ENDTAB
  0
TABLE
  2
LAYER
  5
2
330
0
100
AcDbSymbolTable
 70
     5
  0
LAYER
  5
10
330
2
100
AcDbSymbolTableRecord
100
AcDbLayerTableRecord
  2
0
 70
     0
 62
     7
  6
CONTINUOUS
  0
LAYER
  5
34
330
2
100
AcDbSymbolTableRecord
100
AcDbLayerTableRecord
  2
L
 70
     0
 62
     7
  6
CONTINUOUS
  0
LAYER
  5
45
330
2
100
AcDbSymbolTableRecord
100
AcDbLayerTableRecord
  2
DEFPOINTS
 70
     0
 62
     7
  6
CONTINUOUS
  0
LAYER
  5
88
330
2
100
AcDbSymbolTableRecord
100
AcDbLayerTableRecord
  2
TX
 70
     0
 62
   150
  6
CONTINUOUS
  0
LAYER
  5
B5
330
2
100
AcDbSymbolTableRecord
100
AcDbLayerTableRecord
  2
MAIN
 70
     0
 62
     7
  6
CONTINUOUS
  0
ENDTAB
  0
TABLE
  2
STYLE
  5
3
330
0
100
AcDbSymbolTable
 70
     6
  0
STYLE
  5
11
330
3
100
AcDbSymbolTableRecord
100
AcDbTextStyleTableRecord
  2
STANDARD
 70
     0
 40
0.0
 41
1.0
 50
0.0
 71
     0
 42
0.09375
  3
txt
  4

  0
STYLE
  5
35
330
3
100
AcDbSymbolTableRecord
100
AcDbTextStyleTableRecord
  2
REG
 70
     0
 40
0.0
 41
1.0
 50
0.0
 71
     0
 42
0.09375
  3
E:\R13\com\fonts\ARCHITXT.SHX
  4

  0
STYLE
  5
36
330
3
100
AcDbSymbolTableRecord
100
AcDbTextStyleTableRecord
  2
DIMTXT
 70
     0
 40
0.0
 41
1.0
 50
0.0
 71
     0
 42
1.125
  3
archt.shx
  4

  0
STYLE
  5
B6
330
3
100
AcDbSymbolTableRecord
100
AcDbTextStyleTableRecord
  2
BLD
 70
     0
 40
0.0
 41
1.0
 50
0.0
 71
     0
 42
0.1875
  3
romand.shx
  4

  0
STYLE
  5
B7
330
3
100
AcDbSymbolTableRecord
100
AcDbTextStyleTableRecord
  2
REG2
 70
     0
 40
0.0
 41
0.9
 50
0.0
 71
     0
 42
0.75
  3
E:\R13\com\fonts\romans.shx
  4

  0
STYLE
  5
B8
330
3
100
AcDbSymbolTableRecord
100
AcDbTextStyleTableRecord
  2
ROM2
 70
     0
 40
0.0
 41
0.95
 50
0.0
 71
     0
 42
1.0
  3
ROMANS
  4

  0
ENDTAB
  0
TABLE
  2
VIEW
  5
6
330
0
100
AcDbSymbolTable
 70
     0
  0
ENDTAB
  0
TABLE
  2
UCS
  5
7
330
0
100
AcDbSymbolTable
 70
     0
  0
ENDTAB
  0
TABLE
  2
APPID
  5
9
330
0
100
AcDbSymbolTable
 70
     1
  0
APPID
  5
12
330
9
100
AcDbSymbolTableRecord
100
AcDbRegAppTableRecord
  2
ACAD
 70
     0
  0
ENDTAB
  0
TABLE
  2
DIMSTYLE
  5
A
330
0
100
AcDbSymbolTable
 70
    10
  0
DIMSTYLE
105
27
102
{ACAD_REACTORS
330
CC
330
DA
102
}
330
A
100
AcDbSymbolTableRecord
100
AcDbDimStyleTableRecord
  2
STANDARD
 70
     0
  3

  4

  5

  6

  7

 40
1.0
 41
0.18
 42
0.0625
 43
0.38
 44
0.18
 45
0.0
 46
0.0
 47
0.0
 48
0.0
140
0.18
141
0.09
142
0.0
143
25.4
144
1.0
145
0.0
146
1.0
147
0.09
 71
     0
 72
     0
 73
     1
 74
     1
 75
     0
 76
     0
 77
     0
 78
     0
170
     0
171
     2
172
     0
173
     0
174
     0
175
     0
176
     0
177
     0
178
     0
270
     2
271
     2
272
     2
273
     2
274
     2
340
11
275
     0
280
     0
281
     0
282
     0
283
     1
284
     0
285
     0
286
     0
287
     3
288
     0
  0
DIMSTYLE
105
37
330
A
100
AcDbSymbolTableRecord
100
AcDbDimStyleTableRecord
  2
1
 70
     0
  3

  4

  5

  6

  7

 40
1.0
 41
1.125
 42
0.5
 43
0.375
 44
1.19921875
 45
0.0
 46
0.5
 47
0.0
 48
0.0
140
1.125
141
0.125
142
0.0
143
25.4
144
1.0
145
0.0
146
0.8
147
0.5625
 71
     0
 72
     0
 73
     0
 74
     0
 75
     0
 76
     0
 77
     1
 78
     3
170
     0
171
     2
172
     1
173
     0
174
     1
175
     0
176
   133
177
   133
178
   150
270
     2
271
     3
272
     3
273
     2
274
     2
340
36
275
     0
280
     0
281
     0
282
     0
283
     1
284
     0
285
     0
286
     0
287
     4
288
     0
  0
DIMSTYLE
105
38
330
A
100
AcDbSymbolTableRecord
100
AcDbDimStyleTableRecord
  2
1$2
 70
     0
  3

  4

  5
DOTSMALL
  6

  7

 40
1.0
 41
1.5
 42
0.5
 43
0.375
 44
1.19921875
 45
0.0
 46
0.5
 47
0.0
 48
0.0
140
0.75
141
0.125
142
0.0
143
25.4
144
1.0
145
0.0
146
0.8
147
0.5625
 71
     0
 72
     0
 73
     0
 74
     0
 75
     0
 76
     0
 77
     1
 78
     3
170
     0
171
     2
172
     1
173
     0
174
     1
175
     0
176
   133
177
   133
178
   150
270
     2
271
     3
272
     3
273
     2
274
     2
340
36
275
     0
280
     0
281
     0
282
     0
283
     1
284
     0
285
     0
286
     0
287
     4
288
     0
  0
DIMSTYLE
105
39
330
A
100
AcDbSymbolTableRecord
100
AcDbDimStyleTableRecord
  2
1$4
 70
     0
  3

  4

  5

  6

  7
DOTSMALL
 40
1.0
 41
1.5
 42
0.5
 43
0.375
 44
1.19921875
 45
0.0
 46
0.5
 47
0.0
 48
0.0
140
0.75
141
0.125
142
0.0
143
25.4
144
1.0
145
0.0
146
0.8
147
0.5625
 71
     0
 72
     0
 73
     0
 74
     0
 75
     0
 76
     0
 77
     1
 78
     3
170
     0
171
     2
172
     1
173
     1
174
     1
175
     0
176
   133
177
   133
178
   150
270
     2
271
     3
272
     3
273
     2
274
     2
340
36
275
     0
280
     0
281
     0
282
     0
283
     1
284
     0
285
     0
286
     0
287
     4
288
     0
  0
DIMSTYLE
105
3A
330
A
100
AcDbSymbolTableRecord
100
AcDbDimStyleTableRecord
  2
1$3
 70
     0
  3

  4

  5
DOTSMALL
  6

  7

 40
1.0
 41
1.5
 42
0.5
 43
0.375
 44
1.19921875
 45
0.0
 46
0.5
 47
0.0
 48
0.0
140
0.75
141
0.125
142
0.0
143
25.4
144
1.0
145
0.0
146
0.8
147
0.5625
 71
     0
 72
     0
 73
     0
 74
     0
 75
     0
 76
     0
 77
     1
 78
     3
170
     0
171
     2
172
     1
173
     0
174
     1
175
     0
176
   133
177
   133
178
   150
270
     2
271
     3
272
     3
273
     2
274
     2
340
36
275
     0
280
     0
281
     0
282
     0
283
     1
284
     0
285
     0
286
     0
287
     4
288
     0
  0
DIMSTYLE
105
3B
330
A
100
AcDbSymbolTableRecord
100
AcDbDimStyleTableRecord
  2
1$7
 70
     0
  3

  4

  5

  6

  7

 40
1.0
 41
1.0
 42
0.5
 43
0.375
 44
1.19921875
 45
0.0
 46
0.5
 47
0.0
 48
0.0
140
0.75
141
0.125
142
0.0
143
25.4
144
1.0
145
0.0
146
0.8
147
0.5625
 71
     0
 72
     0
 73
     0
 74
     0
 75
     0
 76
     0
 77
     1
 78
     3
170
     0
171
     2
172
     1
173
     0
174
     1
175
     0
176
   133
177
   133
178
   150
270
     2
271
     3
272
     3
273
     2
274
     2
340
36
275
     0
280
     0
281
     0
282
     0
283
     1
284
     0
285
     0
286
     0
287
     4
288
     0
  0
DIMSTYLE
105
B9
330
A
100
AcDbSymbolTableRecord
100
AcDbDimStyleTableRecord
  2
STANDARD$2
 70
     0
  3

  4

  5

  6

  7

 40
0.0
 41
0.625
 42
0.5
 43
0.375
 44
0.375
 45
0.0
 46
0.0
 47
0.0
 48
0.0
140
0.625
141
0.125
142
0.0
143
25.4
144
1.0
145
0.0
146
0.8
147
0.25
 71
     0
 72
     0
 73
     1
 74
     1
 75
     0
 76
     0
 77
     0
 78
     4
170
     0
171
     2
172
     0
173
     0
174
     0
175
     0
176
   133
177
   133
178
   150
270
     2
271
     3
272
     3
273
     2
274
     2
340
B8
275
     0
280
     0
281
     0
282
     0
283
     1
284
     0
285
     0
286
     0
287
     3
288
     1
  0
DIMSTYLE
105
BA
330
A
100
AcDbSymbolTableRecord
100
AcDbDimStyleTableRecord
  2
STANDARD$4
 70
     0
  3

  4

  5

  6
DOTSMALL
  7

 40
0.0
 41
0.625
 42
0.5
 43
0.375
 44
0.375
 45
0.0
 46
0.0
 47
0.0
 48
0.0
140
0.625
141
0.125
142
0.0
143
25.4
144
1.0
145
0.0
146
0.8
147
0.25
 71
     0
 72
     0
 73
     1
 74
     1
 75
     0
 76
     0
 77
     0
 78
     4
170
     0
171
     2
172
     0
173
     1
174
     0
175
     0
176
   133
177
   133
178
   150
270
     2
271
     3
272
     3
273
     2
274
     2
340
B8
275
     0
280
     0
281
     0
282
     0
283
     1
284
     0
285
     0
286
     0
287
     3
288
     1
  0
DIMSTYLE
105
BB
330
A
100
AcDbSymbolTableRecord
100
AcDbDimStyleTableRecord
  2
STANDARD$3
 70
     0
  3

  4

  5

  6

  7

 40
0.0
 41
0.625
 42
0.5
 43
0.375
 44
0.375
 45
0.0
 46
0.0
 47
0.0
 48
0.0
140
0.625
141
0.125
142
0.0
143
25.4
144
1.0
145
0.0
146
0.8
147
0.25
 71
     0
 72
     0
 73
     1
 74
     1
 75
     0
 76
     0
 77
     0
 78
     4
170
     0
171
     2
172
     0
173
     0
174
     0
175
     0
176
   133
177
   133
178
   150
270
     2
271
     3
272
     3
273
     2
274
     2
340
B8
275
     0
280
     0
281
     0
282
     0
283
     1
284
     0
285
     0
286
     0
287
     3
288
     1
  0
DIMSTYLE
105
BC
330
A
100
AcDbSymbolTableRecord
100
AcDbDimStyleTableRecord
  2
STANDARD$7
 70
     0
  3

  4

  5
DOTSMALL
  6

  7

 40
0.0
 41
0.625
 42
0.5
 43
0.375
 44
0.375
 45
0.0
 46
0.0
 47
0.0
 48
0.0
140
0.5
141
0.125
142
0.0
143
25.4
144
1.0
145
0.0
146
0.8
147
0.25
 71
     0
 72
     0
 73
     1
 74
     1
 75
     0
 76
     0
 77
     0
 78
     4
170
     0
171
     2
172
     0
173
     0
174
     0
175
     0
176
   133
177
   133
178
   150
270
     2
271
     3
272
     3
273
     2
274
     2
340
B8
275
     0
280
     0
281
     0
282
     0
283
     1
284
     0
285
     0
286
     0
287
     0
288
     0
  0
ENDTAB
  0
TABLE
  2
BLOCK_RECORD
  5
1
330
0
100
AcDbSymbolTable
 70
     7
  0
BLOCK_RECORD
  5
1F
102
{ACAD_XDICTIONARY
360
137
102
}
330
1
100
AcDbSymbolTableRecord
100
AcDbBlockTableRecord
  2
*MODEL_SPACE
  0
BLOCK_RECORD
  5
1B
102
{ACAD_XDICTIONARY
360
135
102
}
330
1
100
AcDbSymbolTableRecord
100
AcDbBlockTableRecord
  2
*PAPER_SPACE
  0
BLOCK_RECORD
  5
2B
330
1
100
AcDbSymbolTableRecord
100
AcDbBlockTableRecord
  2
_DOT
  0
BLOCK_RECORD
  5
30
330
1
100
AcDbSymbolTableRecord
100
AcDbBlockTableRecord
  2
_DOTSMALL
  0
BLOCK_RECORD
  5
CD
330
1
100
AcDbSymbolTableRecord
100
AcDbBlockTableRecord
  2
*D5
  0
BLOCK_RECORD
  5
DB
330
1
100
AcDbSymbolTableRecord
100
AcDbBlockTableRecord
  2
*D6
  0
ENDTAB
  0
ENDSEC
  0
SECTION
  2
BLOCKS
  0
BLOCK
  5
20
330
1F
100
AcDbEntity
  8
0
100
AcDbBlockBegin
  2
*MODEL_SPACE
 70
     0
 10
0.0
 20
0.0
 30
0.0
  3
*MODEL_SPACE
  1

  0
ENDBLK
  5
21
330
1F
100
AcDbEntity
  8
0
100
AcDbBlockEnd
  0
BLOCK
  5
1C
330
1B
100
AcDbEntity
 67
     1
  8
0
100
AcDbBlockBegin
  2
*PAPER_SPACE
 70
     0
 10
0.0
 20
0.0
 30
0.0
  3
*PAPER_SPACE
  1

  0
ENDBLK
  5
1D
330
1B
100
AcDbEntity
 67
     1
  8
0
100
AcDbBlockEnd
  0
BLOCK
  5
2E
330
2B
100
AcDbEntity
  8
0
100
AcDbBlockBegin
  2
_DOT
 70
     0
 10
0.0
 20
0.0
 30
0.0
  3
_DOT
  1

  0
LWPOLYLINE
  5
2C
330
2B
100
AcDbEntity
  8
L
 62
     0
100
AcDbPolyline
 90
        2
 70
     1
 43
0.5
 10
-0.25
 20
0.0
 42
1.0
 10
0.25
 20
0.0
 42
1.0
  0
LINE
  5
2D
330
2B
100
AcDbEntity
  8
L
 62
     0
100
AcDbLine
 10
-0.5
 20
0.0
 30
0.0
 11
-1.0
 21
0.0
 31
0.0
  0
ENDBLK
  5
2F
330
2B
100
AcDbEntity
  8
0
100
AcDbBlockEnd
  0
BLOCK
  5
32
330
30
100
AcDbEntity
  8
0
 48
0.116666
100
AcDbBlockBegin
  2
_DOTSMALL
 70
     0
 10
0.0
 20
0.0
 30
0.0
  3
_DOTSMALL
  1

  0
LWPOLYLINE
  5
31
330
30
100
AcDbEntity
  8
0
  6
BYBLOCK
 62
     0
100
AcDbPolyline
 90
        2
 70
     1
 43
0.5
 10
-0.0625
 20
0.0
 42
1.0
 10
0.0625
 20
0.0
 42
1.0
  0
ENDBLK
  5
33
330
30
100
AcDbEntity
  8
0
 48
0.116666
100
AcDbBlockEnd
  0
BLOCK
  5
D8
330
CD
100
AcDbEntity
  8
0
100
AcDbBlockBegin
  2
*D5
 70
     1
 10
0.0
 20
0.0
 30
0.0
  3
*D5
  1

  0
LINE
  5
CE
330
CD
100
AcDbEntity
  8
0
 62
     0
100
AcDbLine
 10
5.228258275533622
 20
7.046446481332964
 30
0.0
 11
5.228258275533622
 21
7.857462639967252
 31
0.0
  0
LINE
  5
CF
330
CD
100
AcDbEntity
  8
0
 62
     0
100
AcDbLine
 10
8.952553841954157
 20
6.415340770864418
 30
0.0
 11
8.952553841954157
 21
7.857462639967252
 31
0.0
  0
LINE
  5
D0
330
CD
100
AcDbEntity
  8
0
 62
     0
100
AcDbLine
 10
5.408258275533622
 20
7.677462639967252
 30
0.0
 11
6.73040605874389
 21
7.677462639967252
 31
0.0
  0
LINE
  5
D1
330
CD
100
AcDbEntity
  8
0
 62
     0
100
AcDbLine
 10
8.772553841954158
 20
7.677462639967252
 30
0.0
 11
7.45040605874389
 21
7.677462639967252
 31
0.0
  0
SOLID
  5
D2
330
CD
100
AcDbEntity
  8
0
 62
     0
100
AcDbTrace
 10
5.408258275533622
 20
7.707462639967253
 30
0.0
 11
5.408258275533622
 21
7.647462639967252
 31
0.0
 12
5.228258275533622
 22
7.677462639967252
 32
0.0
 13
5.228258275533622
 23
7.677462639967252
 33
0.0
  0
SOLID
  5
D3
330
CD
100
AcDbEntity
  8
0
 62
     0
100
AcDbTrace
 10
8.772553841954158
 20
7.707462639967253
 30
0.0
 11
8.772553841954158
 21
7.647462639967252
 31
0.0
 12
8.952553841954157
 22
7.677462639967252
 32
0.0
 13
8.952553841954157
 23
7.677462639967252
 33
0.0
  0
MTEXT
  5
D4
330
CD
100
AcDbEntity
  8
0
 62
     0
100
AcDbMText
 10
7.09040605874389
 20
7.677462639967252
 30
0.0
 40
0.18
 41
0.0
 71
     5
 72
     1
  1
\A1;3.72
1001
ACAD
1000
MTEXTBEGIN
1070
    73
1070
     1
1070
    44
1040
1.0
1070
    74
1070
     0
1000
MTEXTEND
  0
POINT
  5
D5
330
CD
100
AcDbEntity
  8
DEFPOINTS
 62
     0
100
AcDbPoint
 10
5.228258275533622
 20
6.983946481332964
 30
0.0
  0
POINT
  5
D6
330
CD
100
AcDbEntity
  8
DEFPOINTS
 62
     0
100
AcDbPoint
 10
8.952553841954157
 20
6.352840770864418
 30
0.0
  0
POINT
  5
D7
330
CD
100
AcDbEntity
  8
DEFPOINTS
 62
     0
100
AcDbPoint
 10
8.952553841954157
 20
7.677462639967252
 30
0.0
  0
ENDBLK
  5
D9
330
CD
100
AcDbEntity
  8
0
100
AcDbBlockEnd
  0
BLOCK
  5
E6
330
DB
100
AcDbEntity
  8
0
100
AcDbBlockBegin
  2
*D6
 70
     1
 10
0.0
 20
0.0
 30
0.0
  3
*D6
  1

  0
LINE
  5
DC
330
DB
100
AcDbEntity
  8
0
 62
     0
100
AcDbLine
 10
5.197258275534583
 20
7.015446481333924
 30
0.0
 11
4.32711724664674
 21
7.015446481333924
 31
0.0
  0
LINE
  5
DD
330
DB
100
AcDbEntity
  8
0
 62
     0
100
AcDbLine
 10
7.52406271581032
 20
4.546752678454936
 30
0.0
 11
4.327117246646738
 21
4.546752678454937
 31
0.0
  0
LINE
  5
DE
330
DB
100
AcDbEntity
  8
0
 62
     0
100
AcDbLine
 10
4.50711724664674
 20
6.835446481333924
 30
0.0
 11
4.507117246646739
 21
5.961099579894431
 31
0.0
  0
LINE
  5
DF
330
DB
100
AcDbEntity
  8
0
 62
     0
100
AcDbLine
 10
4.507117246646739
 20
4.726752678454936
 30
0.0
 11
4.507117246646739
 21
5.601099579894431
 31
0.0
  0
SOLID
  5
E0
330
DB
100
AcDbEntity
  8
0
 62
     0
100
AcDbTrace
 10
4.47711724664674
 20
6.835446481333924
 30
0.0
 11
4.53711724664674
 21
6.835446481333924
 31
0.0
 12
4.50711724664674
 22
7.015446481333924
 32
0.0
 13
4.50711724664674
 23
7.015446481333924
 33
0.0
  0
SOLID
  5
E1
330
DB
100
AcDbEntity
  8
0
 62
     0
100
AcDbTrace
 10
4.477117246646739
 20
4.726752678454936
 30
0.0
 11
4.537117246646739
 21
4.726752678454936
 31
0.0
 12
4.507117246646739
 22
4.546752678454937
 32
0.0
 13
4.507117246646739
 23
4.546752678454937
 33
0.0
  0
MTEXT
  5
E2
330
DB
100
AcDbEntity
  8
0
 62
     0
100
AcDbMText
 10
4.507117246646738
 20
5.781099579894432
 30
0.0
 40
0.18
 41
0.0
 71
     5
 72
     1
  1
\A1;2.47
1001
ACAD
1000
MTEXTBEGIN
1070
    73
1070
     1
1070
    44
1040
1.0
1070
    74
1070
     0
1000
MTEXTEND
  0
POINT
  5
E3
330
DB
100
AcDbEntity
  8
DEFPOINTS
 62
     0
100
AcDbPoint
 10
5.259758275534583
 20
7.015446481333924
 30
0.0
  0
POINT
  5
E4
330
DB
100
AcDbEntity
  8
DEFPOINTS
 62
     0
100
AcDbPoint
 10
7.58656271581032
 20
4.546752678454936
 30
0.0
  0
POINT
  5
E5
330
DB
100
AcDbEntity
  8
DEFPOINTS
 62
     0
100
AcDbPoint
 10
4.507117246646739
 20
4.546752678454937
 30
0.0
  0
ENDBLK
  5
E7
330
DB
100
AcDbEntity
  8
0
100
AcDbBlockEnd
  0
ENDSEC
  0
SECTION
  2
ENTITIES
  0
LWPOLYLINE
  5
C8
330
1F
100
AcDbEntity
  8
MAIN
 62
     3
100
AcDbPolyline
 90
       16
 70
     1
 43
0.0
 10
7.078682289139866
 20
6.935446481333997
 10
7.088682289140084
 20
6.945446481334215
 10
7.098682289140189
 20
6.935446481333997
 10
7.505062715800992
 20
6.935446481333997
 10
7.505062715800992
 20
6.935446481333997
 42
-0.4142135623730951
 10
7.536562715801952
 20
6.903946481333036
 10
7.536562715801952
 20
6.903946481333036
 10
7.536562715798314
 20
6.69944648133503
 42
-0.4142135623647706
 10
7.504562715799071
 20
6.667446481333968
 10
7.504562715799071
 20
6.667446481333968
 10
6.672301862475539
 20
6.667446481332149
 10
6.672301862475539
 20
6.66744648133033
 42
-0.4142135623730951
 10
6.640301862476295
 20
6.699446481333211
 10
6.640301862476295
 20
6.699446481333211
 10
6.640301862479933
 20
6.903446481334754
 42
-0.4142135623647706
 10
6.672301862479177
 20
6.935446481333997
  0
LWPOLYLINE
  5
C9
330
1F
100
AcDbEntity
  8
MAIN
 62
     3
100
AcDbPolyline
 90
       60
 70
     1
 43
0.0
 10
8.480182492195869
 20
6.421446481334783
 10
8.465182492196337
 20
6.406446481335365
 10
8.450182492196805
 20
6.421446481334783
 10
8.207182492196185
 20
6.421446481336602
 42
-0.4142135623816881
 10
8.145182492196287
 20
6.483446481334681
 10
8.145182492196287
 20
6.995446481333488
 42
0.4142135623730951
 10
8.12518249219585
 20
7.015446481333924
 10
5.259758275534583
 20
7.015446481333924
 42
0.4142135623730951
 10
5.228258275533622
 20
6.983946481332964
 10
5.228258275533622
 20
6.626115279811415
 42
0.6040724509449098
 10
5.259597924753794
 20
6.609640682529857
 42
-0.4202229399239338
 10
5.441877030497668
 20
6.574055828622363
 42
0.2522636269785603
 10
5.458580304278545
 20
6.565055818204996
 10
5.999801862484051
 20
6.565055818208634
 10
6.014801862483469
 20
6.580055818208052
 10
6.029801862484706
 20
6.565055818208634
 10
6.09330563228406
 20
6.565055818208634
 42
-0.4142135622665412
 10
6.098305632285079
 20
6.560055818209434
 10
6.098305632286898
 20
6.550055818207397
 42
0.4142135622665412
 10
6.103305632284278
 20
6.545055818211835
 10
6.49825827553224
 20
6.54505581820274
 42
-0.4142135623730951
 10
6.530258275533302
 20
6.513055818201678
 10
6.530116274588468
 20
5.981055818209711
 42
0.9999999999999998
 10
6.593116274590389
 20
5.981055818209711
 10
6.593258275533404
 20
6.542446481332149
 42
-0.414213562389744
 10
6.625258275532647
 20
6.574446481333211
 10
7.504562715802709
 20
6.574446481331392
 42
-0.4142135623730951
 10
7.536562715801952
 20
6.542446481332149
 10
7.536562715811047
 20
4.596752678457846
 42
0.4142135623517843
 10
7.58656271581032
 20
4.546752678454936
 10
7.783182492195297
 20
4.546752678456755
 42
0.4142135623897441
 10
7.815182492194541
 20
4.578752678457817
 10
7.815182492190903
 20
4.661252678458254
 42
0.9999999999999998
 10
7.749562715808966
 20
4.661252678458254
 10
7.749562715807147
 20
4.639752678457512
 42
-0.4142135623198181
 10
7.739562715808748
 20
4.629752678457293
 10
7.629562715809985
 20
4.629752678457293
 42
-0.4142135623730951
 10
7.619562715809767
 20
4.639752678457512
 10
7.619562715809767
 20
5.749752678458094
 42
-0.4142135623730951
 10
7.629562715809985
 20
5.759752678458312
 10
7.739562715808748
 20
5.759752678460131
 42
-0.4142135622665412
 10
7.749562715808966
 20
5.749752678458094
 10
7.749562715807147
 20
5.728252678457351
 42
0.9999999999999998
 10
7.815182492192722
 20
5.728252678457351
 10
7.815182492192722
 20
5.739752678457875
 42
-0.4142135623730951
 10
7.835182492193158
 20
5.759752678458312
 10
8.045182492194104
 20
5.759752678458312
 42
-0.4142135623730951
 10
8.065182492194541
 20
5.739752678457875
 10
8.065182492194541
 20
4.586752678457628
 42
0.9999999999999998
 10
8.145182492196287
 20
4.586752678457628
 10
8.145182492196287
 20
6.279446481334957
 42
-0.4142135623730951
 10
8.207182492196185
 20
6.341446481334855
 10
8.650677665789149
 20
6.341446481334855
 42
-0.4873244108769305
 10
8.680766700318887
 20
6.302986588500857
 10
8.68076670553393
 20
6.302986587207556
 42
0.7643173167668055
 10
8.943717936695353
 20
6.156378407999795
 42
0.9999999999999998
 10
8.899389747214915
 20
6.199725975607066
 42
-2.452921705890456
 10
8.899389747216734
 20
6.331166987060782
 42
0.9999999999999998
 10
8.943717936693534
 20
6.374514554668053
 42
0.2018206647630077
 10
8.832182492196185
 20
6.421446481334783
  0
LWPOLYLINE
  5
CA
330
1F
100
AcDbEntity
  8
MAIN
 62
     3
 48
0.116666
100
AcDbPolyline
 90
        9
 70
     1
 43
0.0
 10
8.00518249219505
 20
5.842598201229407
 42
0.4142135623742051
 10
8.065182492194541
 20
5.902598201228897
 10
8.065182492192722
 20
6.875446481336325
 42
0.4142135623730951
 10
8.005182492193231
 20
6.935446481335816
 10
7.679562715801981
 20
6.935446481335816
 42
0.4142135623597759
 10
7.619562715800672
 20
6.875446481334506
 10
7.619562715800672
 20
6.875446481334506
 10
7.619562715806129
 20
5.902598201228897
 42
0.4142135623642155
 10
7.679562715807438
 20
5.842598201229407
  0
LWPOLYLINE
  5
CB
330
1F
100
AcDbEntity
  8
MAIN
 62
     3
100
AcDbPolyline
 90
       67
 70
     1
 43
0.0
 10
5.89574305348589
 20
6.667446481333968
 10
6.133860671482867
 20
6.667446481333968
 42
-0.1826758136874845
 10
6.153703806315494
 20
6.659946481334259
 42
0.3779644730101547
 10
6.193390075980747
 20
6.659946481334259
 42
-0.3779644730101545
 10
6.23307634564782
 20
6.659946481334259
 42
0.3779644730101547
 10
6.272762615313073
 20
6.659946481334259
 42
-0.3779644730101545
 10
6.312448884980145
 20
6.659946481334259
 42
0.3779644730101547
 10
6.352135154645399
 20
6.659946481334259
 42
-0.3779644730101545
 10
6.391821424312471
 20
6.659946481334259
 42
0.3779644730101547
 10
6.431507693977724
 20
6.659946481334259
 42
-0.3779644730101545
 10
6.471193963644797
 20
6.659946481334259
 42
0.4738173398743075
 10
6.517017860590673
 20
6.66744648133033
 10
6.567301862483251
 20
6.66744648133033
 42
0.4142135623730951
 10
6.577301862483469
 20
6.677446481330548
 10
6.57730186248165
 20
6.925446481333779
 42
0.4142135623730951
 10
6.567301862481432
 20
6.935446481333997
 10
6.517017860590673
 20
6.935446481335816
 42
0.4738173398884836
 10
6.471193963644797
 20
6.942946481333706
 42
-0.3779644730101545
 10
6.431507693977724
 20
6.942946481333706
 42
0.3779644730101545
 10
6.391821424312471
 20
6.942946481333706
 42
-0.3779644730101545
 10
6.352135154645399
 20
6.942946481333706
 42
0.3779644730101545
 10
6.312448884980145
 20
6.942946481333706
 42
-0.3779644730101545
 10
6.272762615313073
 20
6.942946481333706
 42
0.3779644730101545
 10
6.23307634564782
 20
6.942946481333706
 42
-0.3779644730101545
 10
6.193390075980747
 20
6.942946481333706
 42
0.3779644730101545
 10
6.153703806315494
 20
6.942946481333706
 42
-0.1826758136790818
 10
6.133860671482867
 20
6.935446481333997
 10
5.89574305348589
 20
6.935446481333997
 42
-0.1826758136856492
 10
5.875899918651445
 20
6.942946481333706
 42
0.3779644730101545
 10
5.836213648986191
 20
6.942946481333706
 42
-0.3779644730101545
 10
5.796527379319119
 20
6.942946481333706
 42
0.3779644730101545
 10
5.756841109653866
 20
6.942946481333706
 42
-0.3779644730101545
 10
5.717154839986793
 20
6.942946481333706
 42
0.3779644730101545
 10
5.67746857032154
 20
6.942946481333706
 42
-0.3779644730101545
 10
5.637782300654468
 20
6.942946481333706
 42
0.3779644730101545
 10
5.598096030989214
 20
6.942946481333706
 42
-0.3779644730109215
 10
5.558409761322142
 20
6.942946481331887
 42
0.4738173399102754
 10
5.512585864376266
 20
6.935446481332178
 10
5.46230186248005
 20
6.935446481333997
 42
0.4142135623730951
 10
5.452301862479831
 20
6.925446481333779
 10
5.45230186248165
 20
6.895446481333124
 42
-0.4142135623730951
 10
5.432301862481214
 20
6.875446481332687
 10
5.412301862478958
 20
6.875446481332687
 42
-0.4142135623730951
 10
5.392301862478522
 20
6.895446481333124
 10
5.39230186248216
 20
6.91544648133356
 42
0.4142135623730951
 10
5.372301862481723
 20
6.935446481333997
 10
5.31325827553093
 20
6.935446481333997
 42
0.4142135623730951
 10
5.293258275530494
 20
6.91544648133356
 10
5.293258275534132
 20
6.713802111537802
 42
0.4701494612482832
 10
5.316979204373016
 20
6.694151300915905
 42
-0.0690664881123078
 10
5.370530365952905
 20
6.696789367492669
 42
0.3723433239094068
 10
5.391758017597855
 20
6.712078623605407
 42
-0.3472991948713756
 10
5.411214205765023
 20
6.727446481335277
 10
5.432301862483033
 20
6.727446481333458
 42
-0.4142135623730951
 10
5.452301862483469
 20
6.707446481333022
 10
5.452301862483469
 20
6.677446481332367
 42
0.4142135623730951
 10
5.462301862483688
 20
6.667446481332149
 10
5.512585864374447
 20
6.667446481333968
 42
0.4738173399077003
 10
5.558409761322142
 20
6.659946481334259
 42
-0.3779644730101545
 10
5.598096030989214
 20
6.659946481334259
 42
0.3779644730101547
 10
5.637782300654468
 20
6.659946481334259
 42
-0.3779644730101545
 10
5.67746857032154
 20
6.659946481334259
 42
0.3779644730101547
 10
5.717154839986793
 20
6.659946481334259
 42
-0.3779644730101545
 10
5.756841109653866
 20
6.659946481334259
 42
0.3779644730101547
 10
5.796527379319119
 20
6.659946481334259
 42
-0.3779644730101545
 10
5.836213648986191
 20
6.659946481334259
 42
0.3779644730101547
 10
5.875899918651445
 20
6.659946481334259
 42
-0.1826758136953166
  0
DIMENSION
  5
CC
330
1F
100
AcDbEntity
  8
0
100
AcDbDimension
  2
*D5
 10
8.952553841954157
 20
7.677462639967252
 30
0.0
 11
7.09040605874389
 21
7.677462639967252
 31
0.0
 70
    32
  3
STANDARD
100
AcDbAlignedDimension
 13
5.228258275533622
 23
6.983946481332964
 33
0.0
 14
8.952553841954157
 24
6.352840770864418
 34
0.0
100
AcDbRotatedDimension
  0
DIMENSION
  5
DA
330
1F
100
AcDbEntity
  8
0
100
AcDbDimension
  2
*D6
 10
4.507117246646739
 20
4.546752678454937
 30
0.0
 11
4.507117246646738
 21
5.781099579894432
 31
0.0
 70
    32
  3
STANDARD
100
AcDbAlignedDimension
 13
5.259758275534583
 23
7.015446481333924
 33
0.0
 14
7.58656271581032
 24
4.546752678454936
 34
0.0
 50
90.0
100
AcDbRotatedDimension
  0
TEXT
  5
E8
330
1F
100
AcDbEntity
  8
TX
100
AcDbText
 10
5.115952198631699
 20
3.597187442788254
 30
0.0
 40
0.09375
  1
SCALE : 1"=1"
 11
5.115952198631699
 21
3.690937442788254
 31
0.0
100
AcDbText
 73
     3
  0
TEXT
  5
E9
330
1F
100
AcDbEntity
  8
0
 62
     3
100
AcDbText
 10
5.115952198631699
 20
3.878409128150337
 30
0.0
 40
0.1125
  1
LARGE INNER FRAME RETAINER PART #2097
100
AcDbText
  0
LWPOLYLINE
  5
EA
330
1F
100
AcDbEntity
  8
0
 62
     5
100
AcDbPolyline
 90
        2
 70
     0
 43
0.01875
 10
5.022216355950657
 20
3.784673285469295
 10
9.30724760595066
 20
3.784673285469295
  0
ENDSEC
  0
SECTION
  2
OBJECTS
  0
DICTIONARY
  5
C
330
0
100
AcDbDictionary
  3
ACAD_GROUP
350
D
  3
ACAD_LAYOUT
350
1A
  3
ACAD_MLINESTYLE
350
17
  3
ACAD_PLOTSETTINGS
350
19
  3
ACAD_PLOTSTYLENAME
350
E
  3
ACDBHEADERROUNDTRIPXREC
350
115
  0
DICTIONARY
  5
137
330
1F
100
AcDbDictionary
280
     1
  3
ACAD_LAYOUTSELFREF
360
138
  0
DICTIONARY
  5
135
330
1B
100
AcDbDictionary
280
     1
  3
ACAD_LAYOUTSELFREF
360
136
  0
DICTIONARY
  5
D
102
{ACAD_REACTORS
330
C
102
}
330
C
100
AcDbDictionary
  0
DICTIONARY
  5
1A
102
{ACAD_REACTORS
330
C
102
}
330
C
100
AcDbDictionary
  0
DICTIONARY
  5
17
102
{ACAD_REACTORS
330
C
102
}
330
C
100
AcDbDictionary
  3
STANDARD
350
18
  0
DICTIONARY
  5
19
102
{ACAD_REACTORS
330
C
102
}
330
C
100
AcDbDictionary
  0
ACDBDICTIONARYWDFLT
  5
E
102
{ACAD_REACTORS
330
C
102
}
330
C
100
AcDbDictionary
281
     1
  3
Normal
350
F
100
AcDbDictionaryWithDefault
340
F
  0
DICTIONARY
  5
115
102
{ACAD_REACTORS
330
C
102
}
330
C
100
AcDbDictionary
  3
CEPSNTYPE
350
11F
  3
FINGERPRINTGUID
350
120
  3
HYPERLINKBASE
350
118
  3
INSUNITS
350
11E
  3
LAYOUTDICT
350
11A
  3
LWETCUNION
350
11D
  3
PLOTSETDICT
350
11B
  3
PLOTSTYLNAMDICT
350
11C
  3
PSVPSCALE
350
122
  3
PUCSBASE
350
125
  3
PUCSORGBACK
350
12B
  3
PUCSORGBOTTOM
350
127
  3
PUCSORGFRONT
350
12A
  3
PUCSORGLEFT
350
128
  3
PUCSORGRIGHT
350
129
  3
PUCSORGTOP
350
126
  3
PUCSORTHOREF
350
123
  3
PUCSORTHOVIEW
350
124
  3
STYLESHEET
350
119
  3
TSTACKALIGN
350
116
  3
TSTACKSIZE
350
117
  3
UCSBASE
350
12E
  3
UCSORGBACK
350
134
  3
UCSORGBOTTOM
350
130
  3
UCSORGFRONT
350
133
  3
UCSORGLEFT
350
131
  3
UCSORGRIGHT
350
132
  3
UCSORGTOP
350
12F
  3
UCSORTHOREF
350
12C
  3
UCSORTHOVIEW
350
12D
  3
VERSIONGUID
350
121
  0
XRECORD
  5
138
102
{ACAD_REACTORS
330
137
102
}
330
137
100
AcDbXrecord
340
1F
  0
XRECORD
  5
136
102
{ACAD_REACTORS
330
135
102
}
330
135
100
AcDbXrecord
340
1B
  0
MLINESTYLE
  5
18
102
{ACAD_REACTORS
330
17
102
}
330
17
100
AcDbMlineStyle
  2
STANDARD
 70
     0
  3

 62
   256
 51
90.0
 52
90.0
 71
     2
 49
0.5
 62
   256
  6
BYLAYER
 49
-0.5
 62
   256
  6
BYLAYER
  0
ACDBPLACEHOLDER
  5
F
102
{ACAD_REACTORS
330
E
102
}
330
E
100
AcDbPlaceHolder
280
     0
  0
XRECORD
  5
11F
102
{ACAD_REACTORS
330
115
102
}
330
115
100
AcDbXrecord
 90
        0
  0
XRECORD
  5
120
102
{ACAD_REACTORS
330
115
102
}
330
115
100
AcDbXrecord
  1
{DC175E3D-AE85-11D5-9A93-0040C77E826B}
  0
XRECORD
  5
118
102
{ACAD_REACTORS
330
115
102
}
330
115
100
AcDbXrecord
  1

  0
XRECORD
  5
11E
102
{ACAD_REACTORS
330
115
102
}
330
115
100
AcDbXrecord
 90
        1
  0
XRECORD
  5
11A
102
{ACAD_REACTORS
330
115
102
}
330
115
100
AcDbXrecord
340
1A
  0
XRECORD
  5
11D
102
{ACAD_REACTORS
330
115
102
}
330
115
100
AcDbXrecord
 90
    10781
  0
XRECORD
  5
11B
102
{ACAD_REACTORS
330
115
102
}
330
115
100
AcDbXrecord
340
19
  0
XRECORD
  5
11C
102
{ACAD_REACTORS
330
115
102
}
330
115
100
AcDbXrecord
340
E
  0
XRECORD
  5
122
102
{ACAD_REACTORS
330
115
102
}
330
115
100
AcDbXrecord
 40
0.0
  0
XRECORD
  5
125
102
{ACAD_REACTORS
330
115
102
}
330
115
100
AcDbXrecord
340
0
  0
XRECORD
  5
12B
102
{ACAD_REACTORS
330
115
102
}
330
115
100
AcDbXrecord
 10
0.0
 20
0.0
 30
0.0
  0
XRECORD
  5
127
102
{ACAD_REACTORS
330
115
102
}
330
115
100
AcDbXrecord
 10
0.0
 20
0.0
 30
0.0
  0
XRECORD
  5
12A
102
{ACAD_REACTORS
330
115
102
}
330
115
100
AcDbXrecord
 10
0.0
 20
0.0
 30
0.0
  0
XRECORD
  5
128
102
{ACAD_REACTORS
330
115
102
}
330
115
100
AcDbXrecord
 10
0.0
 20
0.0
 30
0.0
  0
XRECORD
  5
129
102
{ACAD_REACTORS
330
115
102
}
330
115
100
AcDbXrecord
 10
0.0
 20
0.0
 30
0.0
  0
XRECORD
  5
126
102
{ACAD_REACTORS
330
115
102
}
330
115
100
AcDbXrecord
 10
0.0
 20
0.0
 30
0.0
  0
XRECORD
  5
123
102
{ACAD_REACTORS
330
115
102
}
330
115
100
AcDbXrecord
340
0
  0
XRECORD
  5
124
102
{ACAD_REACTORS
330
115
102
}
330
115
100
AcDbXrecord
 70
     0
  0
XRECORD
  5
119
102
{ACAD_REACTORS
330
115
102
}
330
115
100
AcDbXrecord
  1

  0
XRECORD
  5
116
102
{ACAD_REACTORS
330
115
102
}
330
115
100
AcDbXrecord
 90
        1
  0
XRECORD
  5
117
102
{ACAD_REACTORS
330
115
102
}
330
115
100
AcDbXrecord
 90
       70
  0
XRECORD
  5
12E
102
{ACAD_REACTORS
330
115
102
}
330
115
100
AcDbXrecord
340
0
  0
XRECORD
  5
134
102
{ACAD_REACTORS
330
115
102
}
330
115
100
AcDbXrecord
 10
0.0
 20
0.0
 30
0.0
  0
XRECORD
  5
130
102
{ACAD_REACTORS
330
115
102
}
330
115
100
AcDbXrecord
 10
0.0
 20
0.0
 30
0.0
  0
XRECORD
  5
133
102
{ACAD_REACTORS
330
115
102
}
330
115
100
AcDbXrecord
 10
0.0
 20
0.0
 30
0.0
  0
XRECORD
  5
131
102
{ACAD_REACTORS
330
115
102
}
330
115
100
AcDbXrecord
 10
0.0
 20
0.0
 30
0.0
  0
XRECORD
  5
132
102
{ACAD_REACTORS
330
115
102
}
330
115
100
AcDbXrecord
 10
0.0
 20
0.0
 30
0.0
  0
XRECORD
  5
12F
102
{ACAD_REACTORS
330
115
102
}
330
115
100
AcDbXrecord
 10
0.0
 20
0.0
 30
0.0
  0
XRECORD
  5
12C
102
{ACAD_REACTORS
330
115
102
}
330
115
100
AcDbXrecord
340
0
  0
XRECORD
  5
12D
102
{ACAD_REACTORS
330
115
102
}
330
115
100
AcDbXrecord
 70
     0
  0
XRECORD
  5
121
102
{ACAD_REACTORS
330
115
102
}
330
115
100
AcDbXrecord
  1
{F5DF839F-9873-4A21-8CC7-4559CDAFEA00}
  0
ENDSEC
  0
EOF
